Age Of Mythology 22

An Age of Mythology and the Titans expansion Interactive eyecandy map. This subreddit is dedicated to Age of Mythology, the Titans, the Extended Edition and Tale of the Dragon. Why cant I play age of mythology: titans online?, Video Games, Video gaming discussion on everthing from PC gaming to console gaming systems like Playstation, Xbox, Gamecube, and Dreamcast and their games. To check if your version is still 1. si - 1337x - TorrentFunk - YourBittorrent - Torrent. Age Of Mythology The Titans Cd Keygen -- shorl. Download Age. 7 Patch Preview: Open and sign into Steam. Age of enigmas: Microsoft are hiring for a new entry in a “well-loved strategy franchise”. 2 (+11 Trainer) [h4x0r]. Direct download via magnet link. A Mythology Age sikeres volt, négy hónappal a megjelenése után platina fokozatba kerülése után már átlépte az egymillió eladott példányt. It might even break your game if you do it excessively or just make everything too easy. These titles were originally created by. Download Age of Mythology No-CD/Fixed EXE torrent or any other torrent from the Games PC. however, on the other, the disc does not run at all. Age of Mythology: The Titans es un paso más allá del tradicional Age of the Empires y explora más en un contexto místico en relación a lo histórico. Encuentra Age Of Mythology Gold Edition en Mercado Libre México. A spin-off game, Age of Mythology, was set in the same period as the original Age of Empires, but focused on mythological elements of Greek, Egyptian, and Norse mythology. İçinde yunan mitolojisindeki tanrılarında. Steam Workshop. Recently, we had the opportunity to sit down and talk with Craig Mullins, the illustrator behind many of the iconic Age of Empires art pieces. Free Templates Blogger | News Templates Blogspot. Age of Mythology: Teammates Quit - I'm left fighting a 2v4?! | Unbelievable 4v4 Match on Savannah by Chicks » Mon Jul 10, 2017 11:40 am 0 Replies. Appealing to both the intellect and the imagination, it presents itself vividly and audaciously, leaving little doubt that it intends to be a complete experience in every possible way. Pink and Grey are able to hook at their locations, making it easier on LBlue to defend the final assault. SYS driver, preventing the game from working. - Free app - Free updates. The story revolves around an Arkansas, Atlantean Admiral, who receives the order to go on an adventure through the lands to hunt for a cyclops against Atlantic. Install notes:Extract the Files to My Documents/My Games/Age of Mythology/Scenario Description: You have travelled to the moon to mine moon rock but you must fight for it first! Fight other players for control over the moon the winner is last team or player standing. Age of Mythology (AoM), from the makers of Age of Empires, delivers a more involved real time strategy (RTS) game. This article is about the civilization in Age of Mythology. Eine Zeit voller Mythen und Legenden erwartet uns!. These titles were originally created by. 1144801 Trainer +8 Age of Mythology: Extended Edition (Steam) 5-30-16 Trainer +8 Age of Mythology: Extended Edition (Steam) 6-17-19 Trainer +8 Options: Unlimited Health. age of mythology gold edition patch - Age of Age of Empires II, Gold Edition Age of Empires II Gold Edition unites the exciting game play of both Microsoft Age of Empires II: The Age of Kings and Age of Empires II: The Conquerors Expansion - plus additional content - for one compelling gaming experience. Introduction THE RELIGIONS of ancient Greece and Rome are extinct. 2002 Um in Age of Mythology Cheats zu benutzen (getestet mit der engl. Age of Mythology mantiene la misma mecánica de la saga Age of Empires y es similar en algunos aspectos por lo que podría considerarse como un spin-off de estos. Age Of Mythology - High-Definition 322. It was long believed that the city of Troy was an imaginary city from Homer’s ‘Illiad’. A new single-player campaign will add yet another chapter to the expansive panoply of ancient folklore along with the addition of new scenarios. IMO Japanese is more likely due to just how much variety they have in their mythology. Nele você pode criar seu próprio mapa, com unidades de sua escolha, construções e elementos naturais. Age of Mythology TRL - Arachne A fire giant I recall was around 22, so I think 18 is quite fair afteral ( It's also nice seeing someone that still loves the game ). Age of Mythology (Abgeschlossen) Tracy rockt und zockt; Let's Play Age of Mythology Part 45 (German/HD) - 22 Überlebende by Tracy rockt und zockt. age of mythology the titans. Use mythological creatures like Minotaurs and Cyclopes to bolster your armies' strength. As of now I am getting help from:. Age of Mythology — відеогра жанру стратегії в реальному часі, розроблена компанією Ensemble Studios і видана компанією Microsoft Game Studios в жовтні 2002 року для США і листопаді для Європи. 2363 Trainer +8 Age of Mythology V1. I would not expect much with graphics but it is still a great game to play. Most units are trained at a building. The classic real time strategy game that transports players to a time when heroes did battle with monsters of legend and the gods intervened in the affairs of mortals. Age of Mythology: The Boardgame 4. EXE file with the one from the File Archive. With the great advances in computer CPU and graphics power Ensemble Studios were able to make a graphically rich Age of Empires game without the worry of hardware limitations as much as before. 953557 Trainer +8 Options:. Age of Mythology is an Addictive, Classic Real-time Strategy, Mythology, Fantasy, Co-op, Single and Multiplayer video game developed by SkyBox Labs. Leave this field empty. Age of Empires uważany jest za jeden z najlepszych SAG strategii czasu rzeczywistego (RTS), ze względu na oryginalność i jakość swoich tytułów. 9 % Test CRC B33A8111 Copy CRC B33A8111 Accurately ripped (confidence 5) [0E337CBA] Copy OK Track 4 Filename Stephen Rippy & Kevin McMullan - Age of Mythology (2002) [FLAC]4 - Never Mind the Slacks and Bashers. A twelve mission campaign continues the story from the original and follows the exploits of Kastor and crew as the game's new fourth civilization - the Atlanteans. 02 Patch 4 Feb 2004 - 7. Units in italics. [8] Age of Mythology, Age of Empires III, e suas expansões oferecem partidas online via Ensemble Studios Online (ESO), um sistema similar ao Zone e ao Battle. Windows 98 Zboard Keyboard Gaming Interface for Age of Mythology. Download Age-of-Mythology Fast and for Free. com buy posters from moviegoods buy this soundtrack from cdandlp. Added link to Age of Mythology heaven. Age Of Mythology The Titans Download Age Of Mythology The Titans ,Download Age Of Mythology The Titans Free Full Version, Age Of Mythology The Titans Cheats, Age Of Mythology The Titans Released Date, Age Of Mythology The Titans System Requirements, Age Of Mythology The Titans Torrent. The units roaming these environments are incredibly detailed, move naturally over the terrain, and come to life through hundreds of fluid animations. Age Of Mythology was nominated for two awards at the AIAS. İçinde yunan mitolojisindeki tanrılarında. Please try again later" message when I attempt to play an online game. More Buying Choices $44. Ir al contenido principal Mercado Libre México - Donde comprar y vender de todo. A twelve mission campaign continues the story from the original and follows the exploits of Kastor and crew as the game’s new fourth civilization – the Atlanteans. M 22 - North. In Age of Mythology, players wage war using human armies and diplomacy, progress through development ages, enhance military and economic performance with improvements, and manage economics through resource gathering and trade. Age Of Mythology is one of the best-known and most popular real-time strategy games. The software relates to Games. Submit your. Age of Mythology is a good game that the newer version can be downloaded for free off of www. Brought to you by the creators of the popular "Age of Empires" series, "Age of Mythology" brings things to much more epic proportions. Age of Mythology a game that transports players to a time when heroes did battle with monsters of legend and the gods intervened in the affairs of mortal men. Achetez Age Of Mythology. Under the head of "Hero Myths of the British Race" have been included outlines of the stories of Beowulf, Cuchulain, Hereward the Wake, and Robin Hood. Age of Mythology Extended Edition PC Game Overview. Descargar Age of Mythology. With Sam Worthington, Zoe Saldana, Sigourney Weaver, Michelle Rodriguez. Aunque si lo precompramos antes del 8 de mayo de 2014, día en el que se pondrá oficialmente a la venta, nos saldrá por un 20% menos, esto es, 22,39 euros. Activate Age of Mythology CD Key on your Steam client to download the game and play in multiplayer. 1 vendido - Minas Gerais. EXE file with the one from the File Archive. M 22 - North. Age of Mythology 24. Music director Steven Rippy said the game's score, and soundtrack, were based on musicians including Peter Gabriel, Tuatara, and Bill Laswell, as well as the video game Grim Fandango. When ever we play he always win and I can't seem to beat him. Age of Mythology Free Download Full Version PC Game setup in single direct link for Windows. Encuentra Age Of Mythology - Videojuegos en Mercado Libre México. El éxito de ventas de la saga Age of Empires es enorme, y las cosas también serán a lo grande con Age of Mythology. Download Age-of-Mythology Fast and for Free. Age of Mythology (ზოგადი აბრევიატურა AoM) — მითოლოგიის ჟანრის რეალური. Age of Mythology The Titans free full version for PC from Gameslay. Age of Mythology: The Titans is an expansion pack for Ensemble Studio's Age of Mythology real-time strategy game. We play in the best strategy g. gfx under c:\program files (x86)\Microsoft Games\Age of Mythology\gfxconfig. Mayor speculates on the origin of such misconceptions in ancient writings and art, smartly suggesting that, though Amazons are usually depicted heroically in Greek art and mythology, the male-centric Greeks perhaps struggled to understand a society based on equality between the sexes. 0374 sec Torrentus. Game descargar age of mythology extended edition tale of the dragon - PC Games or Mobile Games Free, Watch Gameplay - Games Lords. Find album reviews, stream songs, credits and award information for Age of Mythology - Original Soundtrack on AllMusic - 2002. Browse all Age of Mythology DLL files and learn how to troubleshoot your Age of Mythology-related DLL errors. Um in Age of Mythology Cheats zu benutzen (getestet mit der engl. Average rating 4. Außerdem sind wir soweit, unsere Invasion zu starten, um das Stück des Osiris zurückzuholen (bei der der. Cheats Age Of Mythology - DOWNLOAD cheats mythologycheats mythology islandcheats mythology titanspoptropica app cheats mythologyage of empires cheats mythologypoptropica cheats mythology hercules' helpcheats age mythology titanspoptropica cheats mythology god testpoptropica cheats mythology full walkthroughpoptropica cheats mythology island fullpoptropica cheats mythology bones. These titles were originally created by Ensemble Studios, and have now been taken up by Microsoft Game Studios, Forgotten Empires and SkyBox Labs. Alternative downloads 14. Age of Mythology was a perfect martini, smoothing out the rough edges of the Empires series while deepening the game through some fundamental changes. 22-05-2017, 23:53 Age of Mythology Siyah Ekran Sorunu Çözümü Oyunun açılışında introlardan sonra menü yerine siyah ekran gelmesi sorunu çözmek için masaüstündeki Titans kısayoluna sağ tıklayıp özelliklerden hedef satırının sonuna aşağıdaki kodu yapıştırarak başlatın. org and etc. 03 Patch 3 Jun 2004 - 7. Age of Mythology once again uses the same overall interfaces, but this is a very good thing as it makes it extremely easy for newcomers to catch on as well as allowing experienced players to slip back into the swing of things. From a general summary to chapter summaries to explanations of famous quotes, the SparkNotes Mythology Study Guide has everything you need to ace quizzes, tests, and essays. 2363 Trainer +7 // Removed because of crashing problems Age of Mythology V1. E algumas dicas, boa sorte no jogo e até a próxima. Filename Stephen Rippy & Kevin McMullan - Age of Mythology (2002) [FLAC]3 - Chocolate Outline. This subreddit is dedicated to Age of Mythology, the Titans, the Extended Edition and Tale of the Dragon. Nele você pode criar seu próprio mapa, com unidades de sua escolha, construções e elementos naturais. They can choose from a handful of units that are either cheap but weak or expensive and strong. The Strongest tower of each race is a Lesser God. Roman players would be able to pick from Jupiter (with the same god powers as Zeus), Janus Quirinus, or Magna Mater (aka Cybele) as their choice of major god. Age of Mythology in windows 10 I get Age of mythology PC DVD-ROM game from USA. Explore 25+ games like Age of Mythology, all suggested and ranked by the AlternativeTo user community. The #1 resource for Age of Mythology on the 'net. 3104 Trainer +8 Age of Mythology V1. Ale nie zapominajmy, że, oprócz oryginalnej serii, było innych gier opracowany przez firmę Microsoft, która utrzymuje AoE estetyczne i które były równie zabawne, jak Age of Mythology. The Age of Mythology game does not. The romantic poem of the Odyssey is now to engage our attention. A new single-player campaign will add yet another chapter to the franchise's expansive folklore along with the addition of new scenarios. If you find product , Deals. Unlike other RTS games, AoM requires a bit more strategy than most and is more involved. In Age of Mythology, players wage war using human armies and diplomacy, progress through development ages, enhance military and economic performance with improvements, and manage economics through resource gathering and trade. Just the title of the post being relevant does not qualify. Age of Mythology Black Screen after intro on windows 10 Hello, I found my old Age of mythology and the expansion pack CDs (and in fact I even have the Ubisoft Gold edition). Age of Mythology : Game Soundtrack Average rating: 0 out of 5 stars, based on 0 reviews Write a review This button opens a dialog that displays additional images for this product with the option to zoom in or out. A new s ingle-player campaign will add yet another chapter to the expansive panoply of ancient folklore along with the addition of new scenarios. If anything, Adam Isgreen being Creative Director for Age of Empires at Microsoft saying so must surely mean it. Außerdem ist es jetzt nicht mehr möglich, ein. 9 % Test CRC B33A8111 Copy CRC B33A8111 Accurately ripped (confidence 5) [0E337CBA] Copy OK Track 4 Filename Stephen Rippy & Kevin McMullan - Age of Mythology (2002) [FLAC]4 - Never Mind the Slacks and Bashers. Players choose from 3 cultures (Norse, Greek, Egyptian), and then shape the development by worshiping gods; different gods reward the player with different mythological beasts and powers. They can choose from a handful of units that are either cheap but weak or expensive and strong. The Age of Fable or Beauties of Mythology by Thomas Bulfinch - AbeBooks. Steam Forum. Music director Steven Rippy said the game's score, and soundtrack, were based on musicians including Peter Gabriel, Tuatara, and Bill Laswell, as well as the video game Grim Fandango. 2003 12 22 ДОБАВИТЬ ПОХОЖУЮ ИГРУ Все игры проверяются редакторами портала перед тем, как появятся в списке похожих игр. 2325 Trainer +6 MrAntiFun // Removed because of crashing problems Age of Mythology V1. 006 Red Alert 2 version 1. This is a guide for anyone interested in the many possible ways of playing Age of Mythology! Get a lot of villagers. The classic real time strategy game that transports players to a time when heroes did battle with monsters of legend and the gods intervened in the affairs of mortals. Age of Mythology once again uses the same overall interfaces, but this is a very good thing as it makes it extremely easy for newcomers to catch on as well as allowing experienced players to slip back into the swing of things. I will be be giving my knowledge of myths and of the memories of this. To check if your version is still 1. Ardından masaüstünde oluşan Age of Mythology kısayolunda sağ tıklayıp özellikler sonra da dosya konumunu açı tıklatın. This subreddit is dedicated to Age of Mythology, the Titans, the Extended Edition and Tale of the Dragon. Please try again later" message when I attempt to play an online game. Age of Mythology: The Boardgame 4. Wonder for Ra Full artwork of Ra In-game statue depiction Monument to Ra Promotional art of Ra for Age of Mythology: Camels and Chariot Archers have 22% more hit. Generalmente no me gustan mucho los que vienen con los juegos, así que creo los míos propios, a partir de una plantilla de Deviantart. This article is about the civilization in Age of Mythology. AOM is a huge jump from the more traditonal Age games, as it is essentally a non-historical game. 962186 All No-DVD [Battery]. Get the best games for your PC, with safe and reliable downloads, in Eazel. The game Age of Mythology download setup is tested and 100% fully working PC Game. Estos son todos los trucos de Age of Mythology, el ya clásico juego de estrategia en tiempo real para PC. Игра не требует активации и на. Age of Mythology: Extended Edition - Age of MythologyThe classic real time strategy game that transports players to a time when heroes did battle with monsters of legend and the gods intervened in the affairs of mortals. Slim fit, order a size up if you’d like it less fitting. The Age of fable;: Or, the beauties of mythology (A Mentor classic) by Bulfinch, Thomas and a great selection of related books, art and collectibles available now at AbeBooks. 0374 sec Torrentus. Taking on the role of one of nine ancient civilizations players guide their people to greatness by commanding all aspects of their empire: gat. To enter a cheat code, press ENTER during your gameplay session and type in the code. Age of Mythology é um jogo de estratégia em tempo real que preserva os elementos já conhecidos da série de games Age of Empires e traz novas aventuras e experiências O jogo conta com três modos Tutorial ensina os fundamentos necessários. Age of Mythology quinta-feira, 7 de fevereiro de 2008. Convert Age Of Mythology Español trail version to full software. Use the pegasus to get vision of the gate, use an underground passage, move your units into the underground passage to attack the gate, and use restoration to heal your units. This game is a spin-off of the popular RTS series Age of Empires. However, as opposed to the numerous civilizations that are present in Age of Empires which differ in statistics, tech tree availability and a. Direct download via magnet link. Age of Mythology Movie 11. Captura de pantalla - shoreline_greek_bignavalbattlealternate. Added link to Age of Mythology heaven. Browse our daily deals for even more savings! Free delivery and free returns on eBay Plus items!. Sep 22, 2011 · As with all other Content mods in the series, the Age of Mythology mod requires the Base mod for mechanical reasons. Age Of Mythology The Titans Cd Keygen -- shorl. Please try again later" message when I attempt to play an online game. Age Of Mythology The Titans Download Age Of Mythology The Titans ,Download Age Of Mythology The Titans Free Full Version, Age Of Mythology The Titans Cheats, Age Of Mythology The Titans Released Date, Age Of Mythology The Titans System Requirements, Age Of Mythology The Titans Torrent. Age of Mythology Free Download. 32 Games like Age of Mythology for Playstation 4, daily generated comparing over 40 000 video games across all platforms. Activate CD Key on your Steam client to download the game and play in multiplayer. 4 - A fine plan, GET COLOSSI with upgrades, build warp gate close to them use lighting on catapult over wall, after u get like 5-6 colossi upgraded just disregard the enemies and take objectives, make sure to kill 2 gold giving structures to advance fast. Age of Mythology é um jogo de estratégia em tempo real que preserva os elementos já conhecidos da série de games Age of Empires e traz novas aventuras e experiências O jogo conta com três modos Tutorial ensina os fundamentos necessários. Age of Empires is the critically acclaimed, award winning Real Time Strategy (RTS) game with a legacy spanning over 20 years and nearly a dozen titles in the franchise. Tech support scams are an industry-wide issue where scammers trick you into paying for unnecessary technical support services. However, in 1871 Dr Heindrich Schlieman used the text in order to discover its location. A spin-off game, Age of Mythology, was set in the same period as the original Age of Empires, but focused on mythological elements of Greek, Egyptian, and Norse mythology. Gamespy Planet site for all the Age of Empire games, Age of Empires 2, Age of Empires 3, News, Trailers, Screenshots, Previews, Reviews, Guides and more. xmb under academy section. 56 (27 used & new offers) Age of Mythology (Bonus! Includes Titans. It has high critical acclaim score. Fevereiro 3. Age of Mythology Extended Edition Free Download PC Game setup in single direct link for Windows. I’ve always been a fan of lore and mythology in video games whether it’s a game like God of War, or Dante’s Inferno, or others such as Age of Mythology. Use mythological creatures like Minotaurs and Cyclopes to bolster your armies' strength. A new single-player campaign will add yet another chapter to the expansive panoply of ancient folklore along with the addition of new scenarios. 5: Desyncs involving player disconnection have been. Version), drücken Sie im laufenden Spiel die Eingebetaste und geben den gewünschten Code ein. This manual patch is only necessary if you are having trouble autopatching the game. Imagen de Age of Mythology. Ao contrário de Age of Empires e Age of Empires II, Mythology possui uma única campanha, com 32 etapas em que o jogador passa por todas as três civilizações. A continuación te indicamos una serie de consejos y trucos de Age of Mythology: The Titans para PC y que sin duda te harán el juego mucho más fácil. Players choose from 3 cultures (Norse, Greek, Egyptian), and then shape the development by worshiping gods; different gods reward the player with different mythological beasts and powers. Get the best deal for Age of Mythology from the largest online selection at eBay. 2013-06-17 22:36:23 | By heil_Argentina I did "borrow" a copy but deleted it once done, I do have AOE 2 and the 2 expansion2 as well as Age of Mythology with the titans expansion pack. Age of Mythology University tv!! We're a group of AOM players working together to a new and better Age of mythology community. Thunderforge 23:14, 10 November 2006 (UTC) Predecessor? The article states that "Age of Mythology was always seen as Age of Empires II predecessor". Game descargar age of mythology extended edition tale of the dragon - PC Games or Mobile Games Free, Watch Gameplay - Games Lords. 10 behebt Ensemble einen Bug in Age of Mythology, der einige Spieler daran gehindert hat, Statistiken hochzuladen. Livraison gratuite possible dès 25€. To trick Age of Mythology into launching despite not recognizing the graphics adapter, you'll have to create a file in the [AoM install directory]\gfxconfig directory. Players wage war using human armies and diplomacy, progress through development ages, enhance military and economic performance with Age of Mythology transports players to a time when heroes did battle with monsters of legend and the gods. com: age of mythology the titans. _____ Join my channel with a Channel Membership https://www. 9 % Test CRC B33A8111 Copy CRC B33A8111 Accurately ripped (confidence 5) [0E337CBA] Copy OK Track 4 Filename Stephen Rippy & Kevin McMullan - Age of Mythology (2002) [FLAC]4 - Never Mind the Slacks and Bashers. It was developed by Ensemble Studios and released on September 30, 2003. Age of Mythology is a Strategy game for PC published by Microsoft Game Studios in 2002. 7 Patch Preview (Update!) Hello legends! We'll begin by sending a heartfelt thanks to everyone playing and posting their thoughts about the updates we released with the Age of Mythology 2. Produzido pela Ensemble Studios, o jogo é uma variação da série Age of Empires, com mais foco em mitologia que com fidelidade histórica. Explore 25+ games like Age of Mythology, all suggested and ranked by the AlternativeTo user community. If you installed Age of Mythology in its default location, that would be C:\Program Files\Microsoft Games\Age of Mythology\gfxconfig. Use mythological creatures like Minotaurs and Cyclopes to bolster your armies' strength. This list includes Comet Crash 2: The Kronkoid Wars, Banner Saga 2, Romance of the Three Kingdoms XIII - Fame and Strategy, Banner Saga Trilogy and 28 more. View the Mod DB Age of Mythology: Expanded Mod for Age of Mythology: The Titans image Image 22. This is a recording of the tenth edition of the first volume, The Age of Fable. Age of enigmas: Microsoft are hiring for a new entry in a “well-loved strategy franchise”. This update "fixes the record game feature to playback all previous recordings, fixes the OOS issues caused by WinXP users without Service Pack 1, and fixes the LAN issue that prohibited machines without an internal connection to play or host LAN games. Age of Mythology is a real-time strategy game based on the myths and heroic epics of the ancient civilizations of Scandinavia, Greece, and Egypt, players control the Atlantean hero Arkantos and can invoke powerful god powers to turn the tide of battle. Age of Mythology is a Strategy game for PC published by Microsoft Game Studios in 2002. Age of Mythology is a spin-off title from the Age of Empires series of real-time strategy games, sharing most of its gameplay with prior titles in the series. May 13, 2003 3:05pm. All Age of Mythology Cheats. The goal of Rome: Total War is to conquer, rule, and manipulate the Roman Empire until you're declared the Imperator. Well here's level 22 (1st norse mission first mission of the norse campaign we have entered hell pretty much. GAMIVO is a platform to find, compare and buy digital game keys. _____ Join my channel with a Channel Membership https://www. Descargar Age of Mythology. Если не знаете, как скачать игру, почитайте, что такое торрент. Might be worth it at this price point w/ the improved visuals + Steam and Twitch integration. From StrategyWiki, the video game walkthrough and strategy guide wiki < Age of Mythology: The Titans. armour and buildings to work with but to us it was fun. All times on the site are UTC. For almost a century and a half, Bulfinch's Mythology has been the text by which the great tales of the gods and goddesses, Greek and Roman antiquity; Scandinavian, Celtic, and Oriental fables and myths; and the age of chivalry have been known. Age of enigmas: Microsoft are hiring for a new entry in a “well-loved strategy franchise”. IMO Japanese is more likely due to just how much variety they have in their mythology. Age of Mythology a game that transports players to a time when heroes did battle with monsters of legend and the gods intervened in the affairs of mortal men. Access to sites Age of Wonders Antivirus ARK: Survival Evolved Battlefield V Borderlands Call Of Duty: Modern Warfare 3 Cities: Skylines Counter-Strike Devil May Cry Dirt Dying Light EA/Origin Access Encryption Express VPN Far Cry Primal FIFA Football Manager Fortnite Game Accs Google Adwords/Yandex Direct Grand Theft Auto (GTA) Grid. For minor gods, they would be able to pick from any gods available to all the other civilizations (Interpretatio romana). Units in italics. Replace the original AOM. Note that every cheat must be written with CAPS LOCK. Age of Empires uważany jest za jeden z najlepszych SAG strategii czasu rzeczywistego (RTS), ze względu na oryginalność i jakość swoich tytułów. concept: an expansion pack for Age of Mythology that adds the Romans. Age of Mythology is a spin-off title from the Age of Empires series of real-time strategy games, sharing most of its gameplay with prior titles in the series. FAQs/Guides are posted in their original, unaltered form. Search for and download any torrent from the pirate bay using search query age of mythology. Cheats Age Of Mythology - DOWNLOAD cheats mythologycheats mythology islandcheats mythology titanspoptropica app cheats mythologyage of empires cheats mythologypoptropica cheats mythology hercules' helpcheats age mythology titanspoptropica cheats mythology god testpoptropica cheats mythology full walkthroughpoptropica cheats mythology island fullpoptropica cheats mythology bones. 23 mil Me gusta. We already done the research and spend a lot of time for you. Age of Mythology Tale of the Dragon, ana oyunun çıkışının ardından yayınlanan son ek pakettir. Umm, Leaving The Explanation Up To You Guys. For their appearance in Age of Empires, see Egyptians (Age of Empires). If you play story mode, You will travel to each one by passing time. A fourth culture, the Atlanteans, with three new gods -- Gaia, Cronos, and Oranos -- is available, and the existing cultures have been modified with new god powers, human units, and mythological units. 953557 Trainer +8 Age of Mythology V2. You can find health information but also damage and bonus damage. Link: Age of Mythology Heaven. Posts themselves must be related to Age of Mythology and games with similar lore or gameplay to it. Get the latest news and information about Age of Mythology, interact with its developers in our forums, download screenshots and other goodies, etc. Skip navigation Age of Mythology: Extended Edition. The so-called divinities of Olympus have not a single worshipper among living men. I'm Pero and this guide will help you cheat in Age of Mythology. The data is not yet updated to the latest expansion "Tale of the Dragon". 2012 1:16 pm. com Buy posters from Allposters. Age of Mythology Movie 11. Age of Mythology: Extended Edition - Age of MythologyThe classic real time strategy game that transports players to a time when heroes did battle with monsters of legend and the gods intervened in the affairs of mortals. If you installed Age of Mythology in its default location, that would be C:\Program Files\Microsoft Games\Age of Mythology\gfxconfig. 0 out of 5 stars 6. This subreddit is dedicated to Age of Mythology, the Titans, the Extended Edition and Tale of the Dragon. Age Of Mythology is one of the best-known and most popular real-time strategy games. Got a Age of Mythology walkthrough, FAQ or Guide? Use the submission form, or email them as attachments to [email protected] armour and buildings to work with but to us it was fun. Frost power no longer makes Bronze power stay active after it has expired. Cheats Age Of Mythology - DOWNLOAD cheats mythologycheats mythology islandcheats mythology titanspoptropica app cheats mythologyage of empires cheats mythologypoptropica cheats mythology hercules' helpcheats age mythology titanspoptropica cheats mythology god testpoptropica cheats mythology full walkthroughpoptropica cheats mythology island fullpoptropica cheats mythology bones. 32 Games like Age of Mythology for Playstation 4, daily generated comparing over 40 000 video games across all platforms. [8] Age of Mythology, Age of Empires III, e suas expansões oferecem partidas online via Ensemble Studios Online (ESO), um sistema similar ao Zone e ao Battle. Age of Mythology & The Titans Expansion | DOWNLOAD - Contador de aldeões + tutorial instalação. Descubre la mejor forma de comprar online. James 02:05, 9 October 2007 (UTC) Removed it. 0 out of 5 stars 22 …THose kids minds are like sponges and this was a really great way to get into the game! — Amazon Customer. M 22 - North. The #1 resource for Age of Mythology on the 'net. Download Age of Mythology No-CD/Fixed EXE torrent or any other torrent from the Games PC. FAQs/Guides are posted in their original, unaltered form. 0 version of Age of Mythology Updater for Mac is provided as a free download on our website. Age of Mythology Halo Wars 2 Starcraft Starcraft II Warcraft III Forums. If you find product , Deals. Activate Age of Mythology CD Key on your Steam client to download the game and play in multiplayer. Image:Age of Mythology - The Titans Liner. Later, we bought the Age ofK ings when it came out. Age of Mythology: The Titans is a real-time strategy computer game expansion pack of Age of Mythology. Age of Mythology Free Download. This was responsible for an instant desync, and players wouldn't have known the cause. Age of Mythology Overview. Age of Mythology é um jogo de estratégia em tempo real que preserva os elementos já conhecidos da série de games Age of Empires e traz novas aventuras e experiências O jogo conta com três modos Tutorial ensina os fundamentos necessários. Search for and download any torrent from the pirate bay using search query age of mythology. Age of Mythology was released in 2002 as a stand-alone spin-off from the successful, mega-selling Age of Empires series. A campanha, intitulada A Queda do Tridente , segue o general Atlante , Arkantos , passando por alguns mitos reais e outros criados para a campanha. Sep 22, 2011 · As with all other Content mods in the series, the Age of Mythology mod requires the Base mod for mechanical reasons. WeaponX Critique de Age of Mythology par WeaponX Sur : Age of Mythology c'est Age of Empire II avec un thème plaqué dessus. I made this baby blog by pass time, every day I add a bit of my collection there are quite a lot of things who does not exist in trade, I made my own covers, my own compilation, and with patience and a lot of courage I arrive has find what I search. 22 (65 used & new offers) Paperback $23. In this game, you will fight the dark side using over hundreds of powerful relics and with help from pets that can acquire human shape. Age of Mythology (commonly abbreviated as AoM), is a mythology-based, real-time strategy computer game developed by Ensemble Studios and published by Microsoft Game Studios. Desc: Age of Mythology: The Titans is an expansion pack to the real-time strategy video game of Age of Mythology. 2363 Trainer +8 Age of Mythology V1. It was released on October 30, 2002 in North America and a week later in Europe. Note that every cheat must be written with CAPS LOCK. Age of Mythology was created by Ensemble Studios. Age of Mythology: Extended Edition. Posts themselves must be related to Age of Mythology and games with similar lore or gameplay to it. 2363 Trainer +7 // Removed because of crashing problems Age of Mythology V1. It became platinum after four months of release and sold for a million of units. Welcome to Age Of Mythology Town Center Please Contact HeroOFTime if you have any problems or Complaints Age Of Mythology Town Center was created on January 8th, 2005. Novembro 2. Browse all Age of Mythology DLL files and learn how to troubleshoot your Age of Mythology-related DLL errors. This subreddit is dedicated to Age of Mythology, the Titans, the Extended Edition and Tale of the Dragon. In the second paragraph of the lead, there is an unreferenced claim, "Age of Mythology is the first "Age of" game to utilise a 3D graphics engine, allowing rotation of the map". Description The Titans is the first expansion pack for the real-time strategy game Age of Mythology. Age of Mythology's revolutionary 3-D engine provides the game with gorgeous environments featuring lifelike rolling terrain, beautiful waves and water, realistic sunlight, and lush forests. Two factions fight for control of the ultimate relic, while a third seeks to destroy everything in its path. Download Age-of-Mythology Torrent at TorrentFunk. They are strong against heroes (mostly thanks to their lower resource and population costs) but very vulnerable to myth units. Wonder for Ra Full artwork of Ra In-game statue depiction Monument to Ra Promotional art of Ra for Age of Mythology: Camels and Chariot Archers have 22% more hit. 2 (+11 Trainer) [h4x0r]. Wonder for Ra Full artwork of Ra In-game statue depiction Monument to Ra Promotional art of Ra for Age of Mythology: Camels and Chariot Archers have 22% more hit.